<svg xmlns="http://www.w3.org/2000/svg"><defs><font horiz-adv-x="1295"><font-face alphabetic="0" ascent="2189" descent="-600" panose-1="2 11 8 6 3 5 4 2 2 4" units-per-em="2048"/><glyph glyph-name="space" horiz-adv-x="532" unicode="&#x20;"/><glyph d="M416 485H172L121 1462H467L416 485ZM117 143Q117 227 162 270T293 313Q376 313 421 269T467 143Q467 64 421 19T293-27Q209-27 163 17T117 143Z" glyph-name="exclam" horiz-adv-x="586" unicode="&#x21;"/><glyph d="M412 1462 371 934H174L133 1462H412ZM834 1462 793 934H596L555 1462H834Z" glyph-name="quotedbl" horiz-adv-x="967" unicode="&#x26;&#x71;&#x75;&#x6f;&#x74;&#x3b;"/><glyph d="M999 844 952 612H1210V406H913L836 0H616L694 406H500L424 0H209L283 406H45V612H322L369 844H117V1053H406L483 1460H702L625 1053H823L901 1460H1116L1038 1053H1278V844H999ZM539 612H735L782 844H586L539 612Z" glyph-name="numbersign" horiz-adv-x="1323" unicode="&#x23;"/><glyph d="M1092 457Q1092 298 977 202T655 86V-119H518V82Q274 87 90 168V432Q177 389 299 356T518 317V627L451 653Q253 731 171 822T88 1049Q88 1194 201 1287T518 1401V1554H655V1405Q884 1395 1069 1313L975 1079Q819 1143 655 1157V862Q850 787 932 732T1053 611 1092 457ZM791 442Q791 484 757 513T655 573V324Q791 347 791 442ZM389 1049Q389 1005 419 977T518 918V1153Q389 1134 389 1049Z" glyph-name="dollar" horiz-adv-x="1169" unicode="&#x24;"/><glyph d="M315 1024Q315 897 337 835T410 772Q506 772 506 1024 506 1274 410 1274 360 1274 338 1213T315 1024ZM758 1026Q758 796 669 681T408 565Q243 565 153 683T63 1026Q63 1483 408 1483 577 1483 667 1365T758 1026ZM1446 1462 635 0H395L1206 1462H1446ZM1339 440Q1339 313 1361 251T1434 188Q1530 188 1530 440 1530 690 1434 690 1384 690 1362 629T1339 440ZM1782 442Q1782 213 1693 98T1432-18Q1267-18 1177 100T1087 442Q1087 899 1432 899 1601 899 1691 781T1782 442Z" glyph-name="percent" horiz-adv-x="1845" unicode="&#x25;"/><glyph d="M1536 0H1159L1044 113Q853-20 612-20 368-20 225 92T82 395Q82 532 142 628T350 809Q275 895 241 973T207 1145Q207 1297 323 1390T635 1483Q821 1483 932 1397T1044 1165Q1044 1046 975 948T752 760L1036 483Q1107 600 1159 784H1477Q1441 649 1378 521T1235 293L1536 0ZM403 424Q403 338 467 287T633 236Q759 236 860 297L528 627Q470 583 437 535T403 424ZM762 1133Q762 1186 726 1216T633 1247Q566 1247 528 1215T489 1124Q489 1036 584 930 670 978 716 1024T762 1133Z" glyph-name="ampersand" horiz-adv-x="1536" unicode="&#x26;&#x61;&#x6d;&#x70;&#x3b;"/><glyph d="M412 1462 371 934H174L133 1462H412Z" glyph-name="quotesingle" horiz-adv-x="545" unicode="&#x26;&#x61;&#x70;&#x6f;&#x73;&#x3b;"/><glyph d="M82 561Q82 826 159 1057T383 1462H633Q492 1269 420 1038T348 563Q348 318 421 90T631-324H383Q236-154 159 73T82 561Z" glyph-name="parenleft" horiz-adv-x="694" unicode="&#x28;"/><glyph d="M612 561Q612 298 535 71T311-324H63Q198-140 272 88T346 563Q346 807 274 1038T61 1462H311Q458 1287 535 1056T612 561Z" glyph-name="parenright" horiz-adv-x="694" unicode="&#x29;"/><glyph d="M688 1556 647 1188 1020 1292 1053 1040 713 1016 936 719 709 598 553 911 416 600 180 719 401 1016 63 1042 102 1292 467 1188 426 1556H688Z" glyph-name="asterisk" horiz-adv-x="1116" unicode="&#x2a;"/><glyph d="M475 612H88V831H475V1221H694V831H1081V612H694V227H475V612Z" glyph-name="plus" horiz-adv-x="1169" unicode="&#x2b;"/><glyph d="M459 215Q407 13 283-264H63Q128 2 164 238H444L459 215Z" glyph-name="comma" horiz-adv-x="594" unicode="&#x2c;"/><glyph d="M61 424V674H598V424H61Z" glyph-name="hyphen" horiz-adv-x="659" unicode="&#x2d;"/><glyph d="M117 143Q117 227 162 270T293 313Q376 313 421 269T467 143Q467 64 421 19T293-27Q209-27 163 17T117 143Z" glyph-name="period" horiz-adv-x="584" unicode="&#x2e;"/><glyph d="M836 1462 291 0H14L559 1462H836Z" glyph-name="slash" horiz-adv-x="846" unicode="&#x2f;"/><glyph d="M1096 731Q1096 348 971 164T584-20Q331-20 203 170T74 731Q74 1118 199 1301T584 1485Q837 1485 966 1293T1096 731ZM381 731Q381 462 427 346T584 229Q692 229 740 347T788 731Q788 1000 740 1117T584 1235Q475 1235 428 1118T381 731Z" glyph-name="zero" horiz-adv-x="1169" unicode="&#x30;"/><glyph d="M846 0H537V846L540 985 545 1137Q468 1060 438 1036L270 901 121 1087 592 1462H846V0Z" glyph-name="one" horiz-adv-x="1169" unicode="&#x31;"/><glyph d="M1104 0H82V215L449 586Q612 753 662 817T734 937 756 1051Q756 1139 708 1182T578 1225Q493 1225 413 1186T246 1075L78 1274Q186 1366 257 1404T412 1462 600 1483Q737 1483 842 1433T1005 1293 1063 1087Q1063 986 1028 898T918 716 655 451L467 274V260H1104V0Z" glyph-name="two" horiz-adv-x="1169" unicode="&#x32;"/><glyph d="M1047 1135Q1047 998 964 902T731 770V764Q908 742 999 657T1090 426Q1090 215 937 98T500-20Q262-20 78 59V322Q163 279 265 252T467 225Q620 225 693 277T766 444Q766 547 682 590T414 633H303V870H416Q586 870 664 914T743 1067Q743 1233 535 1233 463 1233 389 1209T223 1126L80 1339Q280 1483 557 1483 784 1483 915 1391T1047 1135Z" glyph-name="three" horiz-adv-x="1169" unicode="&#x33;"/><glyph d="M1137 303H961V0H659V303H35V518L676 1462H961V543H1137V303ZM659 543V791Q659 853 664 971T672 1108H664Q627 1026 575 948L307 543H659Z" glyph-name="four" horiz-adv-x="1169" unicode="&#x34;"/><glyph d="M614 934Q826 934 951 815T1077 489Q1077 244 926 112T494-20Q250-20 100 59V326Q179 284 284 258T483 231Q766 231 766 463 766 684 473 684 420 684 356 674T252 651L129 717 184 1462H977V1200H455L428 913 463 920Q524 934 614 934Z" glyph-name="five" horiz-adv-x="1169" unicode="&#x35;"/><glyph d="M72 621Q72 1055 255 1267T805 1479Q930 1479 1001 1464V1217Q912 1237 825 1237 666 1237 566 1189T415 1047 356 780H369Q468 950 686 950 882 950 993 827T1104 487Q1104 253 972 117T606-20Q444-20 324 55T138 274 72 621ZM600 227Q699 227 752 293T805 483Q805 590 756 651T606 713Q512 713 446 652T379 510Q379 391 441 309T600 227Z" glyph-name="six" horiz-adv-x="1169" unicode="&#x36;"/><glyph d="M227 0 776 1200H55V1460H1104V1266L551 0H227Z" glyph-name="seven" horiz-adv-x="1169" unicode="&#x37;"/><glyph d="M586 1481Q796 1481 924 1386T1053 1128Q1053 1016 991 929T791 772Q955 684 1026 589T1098 379Q1098 199 957 90T586-20Q346-20 209 82T72 371Q72 496 138 593T352 764Q227 843 172 933T117 1130Q117 1287 247 1384T586 1481ZM358 389Q358 303 418 255T582 207Q697 207 754 256T811 387Q811 454 755 512T571 637Q358 539 358 389ZM584 1255Q505 1255 457 1215T408 1106Q408 1046 446 999T586 901Q684 947 723 995T762 1106Q762 1175 712 1215T584 1255Z" glyph-name="eight" horiz-adv-x="1169" unicode="&#x38;"/><glyph d="M1098 838Q1098 406 916 193T365-20Q235-20 168-6V242Q252 221 344 221 499 221 599 266T752 409 813 678H801Q743 584 667 546T477 508Q286 508 176 630T66 971Q66 1206 199 1342T563 1479Q725 1479 846 1403T1033 1183 1098 838ZM569 1231Q473 1231 419 1165T365 975Q365 869 414 807T563 745Q657 745 724 806T791 948Q791 1067 729 1149T569 1231Z" glyph-name="nine" horiz-adv-x="1169" unicode="&#x39;"/><glyph d="M117 143Q117 227 162 270T293 313Q376 313 421 269T467 143Q467 64 421 19T293-27Q209-27 163 17T117 143ZM117 969Q117 1053 162 1096T293 1139Q376 1139 421 1095T467 969Q467 888 421 844T293 799Q209 799 163 843T117 969Z" glyph-name="colon" horiz-adv-x="584" unicode="&#x3a;"/><glyph d="M444 238 459 215Q407 13 283-264H63Q128 2 164 238H444ZM117 969Q117 1053 162 1096T293 1139Q376 1139 421 1095T467 969Q467 888 421 844T293 799Q209 799 163 843T117 969Z" glyph-name="semicolon" horiz-adv-x="594" unicode="&#x3b;"/><glyph d="M1081 203 88 641V784L1081 1280V1040L397 723 1081 442V203Z" glyph-name="less" horiz-adv-x="1169" unicode="&#x26;&#x6c;&#x74;&#x3b;"/><glyph d="M88 805V1024H1081V805H88ZM88 418V637H1081V418H88Z" glyph-name="equal" horiz-adv-x="1169" unicode="&#x3d;"/><glyph d="M88 442 772 723 88 1040V1280L1081 784V641L88 203V442Z" glyph-name="greater" horiz-adv-x="1169" unicode="&#x26;&#x67;&#x74;&#x3b;"/><glyph d="M276 485V559Q276 655 317 726T467 877Q572 952 605 999T639 1104Q639 1169 591 1203T457 1237Q307 1237 115 1139L6 1358Q229 1483 479 1483 685 1483 806 1384T928 1120Q928 1010 878 930T688 750Q592 679 567 642T541 545V485H276ZM244 143Q244 227 289 270T420 313Q503 313 548 269T594 143Q594 64 548 19T420-27Q336-27 290 17T244 143Z" glyph-name="question" horiz-adv-x="977" unicode="&#x3f;"/><glyph d="M1735 752Q1735 608 1689 489T1559 301 1364 233Q1290 233 1233 268T1151 362H1135Q1027 233 860 233 683 233 581 339T479 631Q479 842 613 971T963 1100Q1049 1100 1152 1084T1323 1044L1300 555Q1300 416 1376 416 1440 416 1478 509T1516 754Q1516 915 1449 1038T1261 1227 983 1292Q781 1292 632 1209T404 970 324 608Q324 332 471 185T899 37Q1005 37 1132 60T1382 129V-63Q1168-154 907-154 527-154 315 46T102 602Q102 849 210 1050T519 1366 981 1481Q1201 1481 1374 1391T1641 1135 1735 752ZM711 627Q711 416 883 416 973 416 1020 479T1077 686L1090 907Q1039 918 975 918 850 918 781 840T711 627Z" glyph-name="at" horiz-adv-x="1837" unicode="&#x40;"/><glyph d="M1079 0 973 348H440L334 0H0L516 1468H895L1413 0H1079ZM899 608Q752 1081 734 1143T707 1241Q674 1113 518 608H899Z" glyph-name="A" horiz-adv-x="1413" unicode="&#x41;"/><glyph d="M184 1462H639Q950 1462 1090 1374T1231 1092Q1231 961 1170 877T1006 776V766Q1145 735 1206 650T1268 424Q1268 224 1124 112T731 0H184V1462ZM494 883H674Q800 883 856 922T913 1051Q913 1135 852 1171T657 1208H494V883ZM494 637V256H696Q824 256 885 305T946 455Q946 637 686 637H494Z" glyph-name="B" horiz-adv-x="1376" unicode="&#x42;"/><glyph d="M805 1225Q630 1225 534 1094T438 727Q438 238 805 238 959 238 1178 315V55Q998-20 776-20 457-20 288 173T119 729Q119 957 202 1128T440 1391 805 1483Q1018 1483 1233 1380L1133 1128Q1051 1167 968 1196T805 1225Z" glyph-name="C" horiz-adv-x="1305" unicode="&#x43;"/><glyph d="M1397 745Q1397 384 1192 192T598 0H184V1462H643Q1001 1462 1199 1273T1397 745ZM1075 737Q1075 1208 659 1208H494V256H627Q1075 256 1075 737Z" glyph-name="D" horiz-adv-x="1516" unicode="&#x44;"/><glyph d="M1026 0H184V1462H1026V1208H494V887H989V633H494V256H1026V0Z" glyph-name="E" horiz-adv-x="1147" unicode="&#x45;"/><glyph d="M489 0H184V1462H1022V1208H489V831H985V578H489V0Z" glyph-name="F" horiz-adv-x="1124" unicode="&#x46;"/><glyph d="M739 821H1319V63Q1178 17 1054-1T799-20Q468-20 294 174T119 733Q119 1087 321 1285T883 1483Q1108 1483 1317 1393L1214 1145Q1054 1225 881 1225 680 1225 559 1090T438 727Q438 489 535 364T819 238Q916 238 1016 258V563H739V821Z" glyph-name="G" horiz-adv-x="1483" unicode="&#x47;"/><glyph d="M1382 0H1073V631H494V0H184V1462H494V889H1073V1462H1382V0Z" glyph-name="H" horiz-adv-x="1567" unicode="&#x48;"/><glyph d="M184 0V1462H494V0H184Z" glyph-name="I" horiz-adv-x="678" unicode="&#x49;"/><glyph d="M31-430Q-74-430-152-408V-150Q-72-170-6-170 96-170 140-107T184 92V1462H494V94Q494-162 377-296T31-430Z" glyph-name="J" horiz-adv-x="678" unicode="&#x4a;"/><glyph d="M1360 0H1008L625 616 494 522V0H184V1462H494V793L616 965 1012 1462H1356L846 815 1360 0Z" glyph-name="K" horiz-adv-x="1360" unicode="&#x4b;"/><glyph d="M184 0V1462H494V256H1087V0H184Z" glyph-name="L" horiz-adv-x="1157" unicode="&#x4c;"/><glyph d="M803 0 451 1147H442Q461 797 461 680V0H184V1462H606L952 344H958L1325 1462H1747V0H1458V692Q1458 741 1459 805T1473 1145H1464L1087 0H803Z" glyph-name="M" horiz-adv-x="1931" unicode="&#x4d;"/><glyph d="M1481 0H1087L451 1106H442Q461 813 461 688V0H184V1462H575L1210 367H1217Q1202 652 1202 770V1462H1481V0Z" glyph-name="N" horiz-adv-x="1665" unicode="&#x4e;"/><glyph d="M1511 733Q1511 370 1331 175T815-20Q479-20 299 175T119 735Q119 1100 299 1292T817 1485Q1154 1485 1332 1291T1511 733ZM444 733Q444 488 537 364T815 240Q1186 240 1186 733 1186 1227 817 1227 632 1227 538 1103T444 733Z" glyph-name="O" horiz-adv-x="1630" unicode="&#x4f;"/><glyph d="M494 774H596Q739 774 810 830T881 995Q881 1104 822 1156T635 1208H494V774ZM1194 1006Q1194 770 1047 645T627 520H494V0H184V1462H651Q917 1462 1055 1348T1194 1006Z" glyph-name="P" horiz-adv-x="1286" unicode="&#x50;"/><glyph d="M1511 733Q1511 475 1420 301T1151 45L1503-348H1106L838-20H815Q479-20 299 175T119 735Q119 1100 299 1292T817 1485Q1154 1485 1332 1291T1511 733ZM444 733Q444 488 537 364T815 240Q1186 240 1186 733 1186 1227 817 1227 632 1227 538 1103T444 733Z" glyph-name="Q" horiz-adv-x="1630" unicode="&#x51;"/><glyph d="M494 813H594Q741 813 811 862T881 1016Q881 1120 810 1164T588 1208H494V813ZM494 561V0H184V1462H610Q908 1462 1051 1354T1194 1024Q1194 895 1123 795T922 637Q1252 144 1352 0H1008L659 561H494Z" glyph-name="R" horiz-adv-x="1352" unicode="&#x52;"/><glyph d="M1047 406Q1047 208 905 94T508-20Q274-20 94 68V356Q242 290 344 263T532 236Q634 236 688 275T743 391Q743 434 719 467T649 532 459 631Q325 694 258 752T151 887 111 1067Q111 1261 242 1372T606 1483Q720 1483 823 1456T1040 1380L940 1139Q823 1187 747 1206T596 1225Q508 1225 461 1184T414 1077Q414 1036 433 1006T493 947 690 844Q895 746 971 648T1047 406Z" glyph-name="S" horiz-adv-x="1128" unicode="&#x53;"/><glyph d="M748 0H438V1204H41V1462H1145V1204H748V0Z" glyph-name="T" horiz-adv-x="1186" unicode="&#x54;"/><glyph d="M1374 1462V516Q1374 354 1302 232T1092 45 768-20Q486-20 330 124T174 520V1462H483V567Q483 398 551 319T776 240Q928 240 996 319T1065 569V1462H1374Z" glyph-name="U" horiz-adv-x="1548" unicode="&#x55;"/><glyph d="M1018 1462H1331L834 0H496L0 1462H313L588 592Q611 515 635 413T666 270Q677 362 741 592L1018 1462Z" glyph-name="V" horiz-adv-x="1331" unicode="&#x56;"/><glyph d="M1608 0H1255L1057 768Q1046 809 1020 937T989 1110Q983 1056 959 937T922 766L725 0H373L0 1462H305L492 664Q541 443 563 281 569 338 590 457T631 643L844 1462H1137L1350 643Q1364 588 1385 475T1417 281Q1427 359 1449 475T1489 664L1675 1462H1980L1608 0Z" glyph-name="W" horiz-adv-x="1980" unicode="&#x57;"/><glyph d="M1366 0H1012L672 553 332 0H0L485 754 31 1462H373L688 936 997 1462H1331L872 737 1366 0Z" glyph-name="X" horiz-adv-x="1366" unicode="&#x58;"/><glyph d="M639 860 944 1462H1278L793 569V0H485V559L0 1462H336L639 860Z" glyph-name="Y" horiz-adv-x="1278" unicode="&#x59;"/><glyph d="M1137 0H49V201L750 1206H68V1462H1118V1262L418 256H1137V0Z" glyph-name="Z" horiz-adv-x="1186" unicode="&#x5a;"/><glyph d="M627-324H143V1462H627V1251H403V-113H627V-324Z" glyph-name="bracketleft" horiz-adv-x="678" unicode="&#x5b;"/><glyph d="M289 1462 834 0H557L12 1462H289Z" glyph-name="backslash" horiz-adv-x="846" unicode="&#x5c;"/><glyph d="M51-113H274V1251H51V1462H535V-324H51V-113Z" glyph-name="bracketright" horiz-adv-x="678" unicode="&#x5d;"/><glyph d="M8 520 446 1470H590L1085 520H846L524 1163 244 520H8Z" glyph-name="asciicircum" horiz-adv-x="1090" unicode="&#x5e;"/><glyph d="M846-324H-4V-184H846V-324Z" glyph-name="underscore" horiz-adv-x="842" unicode="&#x5f;"/><glyph d="M707 1241Q644 1285 522 1383T332 1548V1569H674Q737 1468 909 1268V1241H707Z" glyph-name="grave" horiz-adv-x="1243" unicode="&#x60;"/><glyph d="M870 0 811 152H803Q726 55 645 18T432-20Q271-20 179 72T86 334Q86 512 210 596T586 690L780 696V745Q780 915 606 915 472 915 291 834L190 1040Q383 1141 618 1141 843 1141 963 1043T1083 745V0H870ZM780 518 662 514Q529 510 464 466T399 332Q399 203 547 203 653 203 716 264T780 426V518Z" glyph-name="a" horiz-adv-x="1237" unicode="&#x61;"/><glyph d="M782 1139Q980 1139 1092 985T1204 561Q1204 284 1089 132T774-20Q577-20 465 123H444L393 0H160V1556H465V1194Q465 1125 453 973H465Q572 1139 782 1139ZM684 895Q571 895 519 826T465 596V563Q465 383 518 305T688 227Q782 227 837 313T893 565Q893 730 837 812T684 895Z" glyph-name="b" horiz-adv-x="1296" unicode="&#x62;"/><glyph d="M614-20Q92-20 92 553 92 838 234 988T641 1139Q835 1139 989 1063L899 827Q827 856 765 874T641 893Q403 893 403 555 403 227 641 227 729 227 804 250T954 324V63Q880 16 805-2T614-20Z" glyph-name="c" horiz-adv-x="1053" unicode="&#x63;"/><glyph d="M514-20Q317-20 205 133T92 557Q92 832 206 985T522 1139Q733 1139 844 975H854Q831 1100 831 1198V1556H1137V0H903L844 145H831Q727-20 514-20ZM621 223Q738 223 792 291T852 522V555Q852 735 797 813T616 891Q514 891 458 805T401 553Q401 388 458 306T621 223Z" glyph-name="d" horiz-adv-x="1296" unicode="&#x64;"/><glyph d="M623 922Q526 922 471 861T408 686H836Q834 799 777 860T623 922ZM666-20Q396-20 244 129T92 551Q92 832 232 985T621 1139Q858 1139 990 1004T1122 631V483H401Q406 353 478 280T680 207Q781 207 871 228T1059 295V59Q979 19 888 0T666-20Z" glyph-name="e" horiz-adv-x="1210" unicode="&#x65;"/><glyph d="M778 889H514V0H209V889H41V1036L209 1118V1200Q209 1391 303 1479T604 1567Q762 1567 885 1520L807 1296Q715 1325 637 1325 572 1325 543 1287T514 1188V1118H778V889Z" glyph-name="f" horiz-adv-x="793" unicode="&#x66;"/><glyph d="M1133 1118V963L958 918Q1006 843 1006 750 1006 570 881 470T532 369L477 372 432 377Q385 341 385 297 385 231 553 231H743Q927 231 1023 152T1120-80Q1120-276 957-384T487-492Q253-492 130-411T6-182Q6-81 69-13T254 84Q207 104 172 149T137 246Q137 310 174 352T281 436Q193 474 142 558T90 756Q90 939 209 1039T549 1139Q596 1139 660 1131T743 1118H1133ZM270-158Q270-221 330-257T500-293Q664-293 757-248T850-125Q850-62 795-38T625-14H467Q383-14 327-53T270-158ZM381 752Q381 661 422 608T549 555Q635 555 675 608T715 752Q715 954 549 954 381 954 381 752Z" glyph-name="g" horiz-adv-x="1157" unicode="&#x67;"/><glyph d="M1192 0H887V653Q887 895 707 895 579 895 522 808T465 526V0H160V1556H465V1239Q465 1202 458 1065L451 975H467Q569 1139 791 1139 988 1139 1090 1033T1192 729V0Z" glyph-name="h" horiz-adv-x="1346" unicode="&#x68;"/><glyph d="M147 1407Q147 1556 313 1556 479 1556 479 1407 479 1336 438 1297T313 1257Q147 1257 147 1407ZM465 0H160V1118H465V0Z" glyph-name="i" horiz-adv-x="625" unicode="&#x69;"/><glyph d="M70-492Q-47-492-131-467V-227Q-61-246 12-246 89-246 124-203T160-76V1118H465V-121Q465-299 362-395T70-492ZM147 1407Q147 1556 313 1556 479 1556 479 1407 479 1336 438 1297T313 1257Q147 1257 147 1407Z" glyph-name="j" horiz-adv-x="625" unicode="&#x6a;"/><glyph d="M453 608 586 778 899 1118H1243L799 633 1270 0H918L596 453 465 348V0H160V1556H465V862L449 608H453Z" glyph-name="k" horiz-adv-x="1270" unicode="&#x6b;"/><glyph d="M465 0H160V1556H465V0Z" glyph-name="l" horiz-adv-x="625" unicode="&#x6c;"/><glyph d="M1161 0H856V653Q856 774 816 834T688 895Q571 895 518 809T465 526V0H160V1118H393L434 975H451Q496 1052 581 1095T776 1139Q1027 1139 1116 975H1143Q1188 1053 1275 1096T1473 1139Q1663 1139 1760 1042T1858 729V0H1552V653Q1552 774 1512 834T1384 895Q1272 895 1217 815T1161 561V0Z" glyph-name="m" horiz-adv-x="2011" unicode="&#x6d;"/><glyph d="M1192 0H887V653Q887 774 844 834T707 895Q579 895 522 810T465 526V0H160V1118H393L434 975H451Q502 1056 591 1097T795 1139Q990 1139 1091 1034T1192 729V0Z" glyph-name="n" horiz-adv-x="1346" unicode="&#x6e;"/><glyph d="M403 561Q403 395 457 310T635 225Q757 225 810 309T864 561Q864 727 810 810T633 893Q511 893 457 811T403 561ZM1176 561Q1176 288 1032 134T631-20Q470-20 347 50T158 253 92 561Q92 835 235 987T637 1139Q798 1139 921 1069T1110 868 1176 561Z" glyph-name="o" horiz-adv-x="1268" unicode="&#x6f;"/><glyph d="M774-20Q577-20 465 123H449Q465-17 465-39V-492H160V1118H408L451 973H465Q572 1139 782 1139 980 1139 1092 986T1204 561Q1204 382 1152 250T1002 49 774-20ZM684 895Q571 895 519 826T465 596V563Q465 383 518 305T688 227Q893 227 893 565 893 730 843 812T684 895Z" glyph-name="p" horiz-adv-x="1296" unicode="&#x70;"/><glyph d="M623 219Q739 219 793 285T852 518V555Q852 735 797 813T618 891Q403 891 403 553 403 385 456 302T623 219ZM514-20Q316-20 204 132T92 557Q92 831 206 985T520 1139Q626 1139 705 1099T844 975H852L879 1118H1137V-492H831V-23Q831 38 844 145H831Q782 64 701 22T514-20Z" glyph-name="q" horiz-adv-x="1296" unicode="&#x71;"/><glyph d="M784 1139Q846 1139 887 1130L864 844Q827 854 774 854 628 854 547 779T465 569V0H160V1118H391L436 930H451Q503 1024 591 1081T784 1139Z" glyph-name="r" horiz-adv-x="930" unicode="&#x72;"/><glyph d="M940 332Q940 160 821 70T463-20Q341-20 255-4T94 45V297Q179 257 285 230T473 203Q639 203 639 299 639 335 617 357T541 408 397 475Q268 529 208 575T120 680 92 827Q92 976 207 1057T535 1139Q737 1139 928 1051L836 831Q752 867 679 890T530 913Q395 913 395 840 395 799 438 769T629 680Q760 627 821 581T911 475 940 332Z" glyph-name="s" horiz-adv-x="1018" unicode="&#x73;"/><glyph d="M631 223Q711 223 823 258V31Q709-20 543-20 360-20 277 72T193 350V889H47V1018L215 1120 303 1356H498V1118H811V889H498V350Q498 285 534 254T631 223Z" glyph-name="t" horiz-adv-x="889" unicode="&#x74;"/><glyph d="M952 0 911 143H895Q846 65 756 23T551-20Q354-20 254 85T154 389V1118H459V465Q459 344 502 284T639 223Q767 223 824 308T881 592V1118H1186V0H952Z" glyph-name="u" horiz-adv-x="1346" unicode="&#x75;"/><glyph d="M426 0 0 1118H319L535 481Q571 360 580 252H586Q591 348 631 481L846 1118H1165L739 0H426Z" glyph-name="v" horiz-adv-x="1165" unicode="&#x76;"/><glyph d="M1079 0 993 391 877 885H870L666 0H338L20 1118H324L453 623Q484 490 516 256H522Q526 332 557 497L573 582 711 1118H1047L1178 582Q1182 560 1190 517T1207 426 1221 331 1229 256H1235Q1244 328 1267 453T1300 623L1434 1118H1733L1411 0H1079Z" glyph-name="w" horiz-adv-x="1753" unicode="&#x77;"/><glyph d="M389 571 29 1118H375L592 762 811 1118H1157L793 571 1174 0H827L592 383 356 0H10L389 571Z" glyph-name="x" horiz-adv-x="1184" unicode="&#x78;"/><glyph d="M0 1118H334L545 489Q572 407 582 295H588Q599 398 631 489L838 1118H1165L692-143Q627-318 507-405T225-492Q146-492 70-475V-233Q125-246 190-246 271-246 331-197T426-47L444 8 0 1118Z" glyph-name="y" horiz-adv-x="1165" unicode="&#x79;"/><glyph d="M938 0H55V180L573 885H86V1118H920V920L416 233H938V0Z" glyph-name="z" horiz-adv-x="999" unicode="&#x7a;"/><glyph d="M287 270Q287 357 222 403T31 449V688Q157 688 222 732T287 858V866 1184Q287 1337 384 1399T725 1462V1237Q626 1234 589 1199T551 1096V797Q545 609 317 575V563Q551 528 551 351V342 43Q551-25 588-60T725-98V-324Q481-324 384-262T287-45V270Z" glyph-name="braceleft" horiz-adv-x="807" unicode="&#x7b;"/><glyph d="M455 1550H674V-465H455V1550Z" glyph-name="bar" horiz-adv-x="1128" unicode="&#x7c;"/><glyph d="M520-45Q520-157 479-214T344-297 82-324V-98Q181-96 218-62T256 43V342 353Q256 439 315 492T489 563V575Q262 609 256 797V1096Q256 1166 219 1200T82 1237V1462Q249 1462 344 1436T479 1352 520 1184V866 856Q520 772 581 730T776 688V449Q651 449 586 408T520 270V-45Z" glyph-name="braceright" horiz-adv-x="807" unicode="&#x7d;"/><glyph d="M322 672Q267 672 205 639T88 551V782Q191 891 344 891 417 891 481 875T621 827Q750 772 848 772 901 772 964 804T1081 893V662Q980 553 825 553 759 553 699 566T549 616Q418 672 322 672Z" glyph-name="asciitilde" horiz-adv-x="1169" unicode="&#x7e;"/><glyph glyph-name="nbspace" horiz-adv-x="532" unicode="&#xa0;"/><glyph d="M168 606H412L463-369H117L168 606ZM467 948Q467 864 422 821T291 778Q208 778 163 822T117 948Q117 1029 163 1073T291 1118Q375 1118 421 1074T467 948Z" glyph-name="exclamdown" horiz-adv-x="586" unicode="&#xa1;"/><glyph d="M563 176Q143 235 143 741 143 1002 247 1144T563 1317V1483H741V1325Q907 1316 1040 1251L950 1016Q878 1045 816 1063T692 1081Q571 1081 513 998T455 743Q455 416 692 416 774 416 840 431T1006 492V238Q879 177 741 168V-20H563V176Z" glyph-name="cent" horiz-adv-x="1169" unicode="&#xa2;"/><glyph d="M700 1483Q895 1483 1090 1401L997 1171Q840 1235 725 1235 647 1235 605 1191T563 1063V870H938V651H563V508Q563 338 412 260H1130V0H82V248Q185 292 223 349T262 506V651H84V870H262V1065Q262 1266 376 1374T700 1483Z" glyph-name="sterling" horiz-adv-x="1169" unicode="&#xa3;"/><glyph d="M188 723Q188 825 242 920L113 1047 260 1194 387 1067Q478 1120 584 1120 689 1120 780 1065L907 1194 1057 1051 928 922Q981 833 981 723 981 616 928 524L1053 399 907 254 780 379Q685 328 584 328 469 328 385 379L260 256 115 401 242 526Q188 619 188 723ZM395 723Q395 646 449 591T584 535Q665 535 720 590T776 723Q776 803 720 858T584 913Q506 913 451 857T395 723Z" glyph-name="currency" horiz-adv-x="1169" unicode="&#xa4;"/><glyph d="M584 860 848 1462H1161L778 715H973V537H727V399H973V221H727V0H440V221H193V399H440V537H193V715H383L6 1462H322L584 860Z" glyph-name="yen" horiz-adv-x="1169" unicode="&#xa5;"/><glyph d="M455 1550H674V735H455V1550ZM455 350H674V-465H455V350Z" glyph-name="brokenbar" horiz-adv-x="1128" unicode="&#xa6;"/><glyph d="M121 805Q121 884 157 949T254 1055Q121 1139 121 1288 121 1419 232 1498T526 1577Q696 1577 889 1493L807 1303Q739 1335 669 1360T520 1386Q439 1386 402 1363T365 1292Q365 1243 414 1206T578 1124Q741 1060 818 976T895 782Q895 605 770 522 832 482 863 430T895 303Q895 155 776 68T455-20Q252-20 106 59V266Q187 225 286 197T455 168Q649 168 649 285 649 324 631 348T567 397 442 457Q259 531 190 609T121 805ZM344 827Q344 760 409 708T590 610Q668 667 668 756 668 824 618 871T434 967Q397 953 371 914T344 827Z" glyph-name="section" horiz-adv-x="995" unicode="&#xa7;"/><glyph d="M279 1405Q279 1470 316 1505T418 1540Q484 1540 521 1503T559 1405Q559 1345 521 1309T418 1272Q354 1272 317 1307T279 1405ZM682 1405Q682 1475 722 1507T823 1540Q888 1540 926 1504T965 1405Q965 1344 926 1308T823 1272Q763 1272 723 1304T682 1405Z" glyph-name="dieresis" horiz-adv-x="1243" unicode="&#xa8;"/><glyph d="M895 1010Q798 1010 745 936T692 731Q692 451 895 451 952 451 1018 466T1141 510V319Q1021 262 889 262 685 262 573 387T461 733Q461 953 571 1075T881 1198Q1030 1198 1186 1120L1112 952Q999 1010 895 1010ZM100 731Q100 931 200 1106T475 1382 852 1483Q1052 1483 1227 1383T1503 1108 1604 731Q1604 534 1507 361T1235 84 852-20Q645-20 470 83T198 360 100 731ZM242 731Q242 567 324 426T548 203 852 121Q1016 121 1157 203T1380 427 1462 731Q1462 895 1380 1036T1156 1259 852 1341Q688 1341 547 1259T324 1035 242 731Z" glyph-name="copyright" horiz-adv-x="1704" unicode="&#xa9;"/><glyph d="M561 764 530 874Q487 816 425 784T289 752Q172 752 110 810T47 975Q47 1084 129 1138T397 1202L496 1206Q496 1323 369 1323 288 1323 152 1262L86 1397Q152 1429 231 1454T410 1479Q547 1479 621 1408T696 1206V764H561ZM252 977Q252 939 275 921T330 903Q407 903 451 944T496 1051V1087L397 1081Q252 1071 252 977Z" glyph-name="ordfeminine" horiz-adv-x="784" unicode="&#xaa;"/><glyph d="M82 573 453 1028 672 909 393 561 672 213 453 94 82 547V573ZM588 573 958 1028 1178 909 899 561 1178 213 958 94 588 547V573Z" glyph-name="guillemotleft" horiz-adv-x="1260" unicode="&#xab;"/><glyph d="M1081 248H862V612H88V831H1081V248Z" glyph-name="logicalnot" horiz-adv-x="1169" unicode="&#xac;"/><glyph d="M61 424V674H598V424H61Z" glyph-name="uni00AD" horiz-adv-x="659" unicode="&#xad;"/><glyph d="M1157 905Q1157 735 1014 672L1251 272H997L819 610H772V272H543V1188H807Q988 1188 1072 1118T1157 905ZM772 778H803Q869 778 897 806T926 901Q926 966 898 993T801 1020H772V778ZM100 731Q100 931 200 1106T475 1382 852 1483Q1052 1483 1227 1383T1503 1108 1604 731Q1604 534 1507 361T1235 84 852-20Q645-20 470 83T198 360 100 731ZM242 731Q242 567 324 426T548 203 852 121Q1016 121 1157 203T1380 427 1462 731Q1462 895 1380 1036T1156 1259 852 1341Q688 1341 547 1259T324 1035 242 731Z" glyph-name="registered" horiz-adv-x="1704" unicode="&#xae;"/><glyph d="M1030 1556H-6V1757H1030V1556Z" glyph-name="overscore" horiz-adv-x="1024" unicode="&#xaf;"/><glyph d="M92 1137Q92 1229 138 1309T264 1436 438 1483Q530 1483 610 1437T737 1310 784 1137Q784 1044 738 964T611 838 438 793Q293 793 193 892T92 1137ZM283 1137Q283 1073 327 1028T438 983Q504 983 549 1029T594 1137Q594 1200 549 1247T438 1294Q374 1294 329 1248T283 1137Z" glyph-name="degree" horiz-adv-x="877" unicode="&#xb0;"/><glyph d="M475 674H88V893H475V1282H694V893H1081V674H694V289H475V674ZM88 0V219H1081V0H88Z" glyph-name="plusminus" horiz-adv-x="1169" unicode="&#xb1;"/><glyph d="M702 586H55V754L279 973Q381 1073 409 1117T438 1212Q438 1250 414 1270T350 1290Q269 1290 170 1202L47 1354Q194 1483 383 1483 520 1483 599 1417T678 1233Q678 1148 631 1073T455 881L350 786H702V586Z" glyph-name="twosuperior" horiz-adv-x="776" unicode="&#xb2;"/><glyph d="M666 1249Q666 1106 496 1051V1038Q590 1018 642 963T694 829Q694 708 606 639T332 569Q189 569 59 639V829Q207 739 330 739 473 739 473 846 473 899 429 925T307 952H195V1112H287Q370 1112 410 1138T451 1221Q451 1259 426 1284T350 1309Q303 1309 261 1290T162 1231L61 1372Q123 1419 198 1450T377 1481Q504 1481 585 1417T666 1249Z" glyph-name="threesuperior" horiz-adv-x="776" unicode="&#xb3;"/><glyph d="M332 1241V1268Q504 1468 567 1569H909V1548Q857 1496 732 1394T535 1241H332Z" glyph-name="acute" horiz-adv-x="1243" unicode="&#xb4;"/><glyph d="M465 465Q465 344 509 284T647 223Q773 223 830 309T887 592V1118H1192V0H961L918 150H903Q861 65 801 23T653-20Q591-20 539 3T455 70L460-15 465-172V-492H160V1118H465V465Z" glyph-name="mu" horiz-adv-x="1352" unicode="&#xb5;"/><glyph d="M1167-260H1006V1356H840V-260H678V559Q616 541 532 541 316 541 215 666T113 1042Q113 1302 222 1429T563 1556H1167V-260Z" glyph-name="paragraph" horiz-adv-x="1341" unicode="&#xb6;"/><glyph d="M117 723Q117 807 162 850T293 893Q376 893 421 849T467 723Q467 642 421 598T293 553Q209 553 163 597T117 723Z" glyph-name="middot" horiz-adv-x="584" unicode="&#xb7;"/><glyph d="M418-250Q418-378 343-435T109-492Q31-492-37-471V-303Q-10-310 35-317T106-324Q178-324 178-262 178-179 12-154L90 0H283L256-61Q330-85 374-135T418-250Z" glyph-name="cedilla" horiz-adv-x="420" unicode="&#xb8;"/><glyph d="M584 586H346V1032L349 1144 354 1239Q327 1203 279 1161L201 1100 92 1227 393 1462H584V586Z" glyph-name="onesuperior" horiz-adv-x="776" unicode="&#xb9;"/><glyph d="M737 1116Q737 945 646 849T395 752Q242 752 150 850T57 1116Q57 1285 146 1382T399 1479Q551 1479 644 1381T737 1116ZM260 1116Q260 1016 292 966T397 915Q469 915 500 965T532 1116Q532 1216 501 1265T397 1315Q325 1315 293 1266T260 1116Z" glyph-name="ordmasculine" horiz-adv-x="795" unicode="&#xba;"/><glyph d="M1178 547 807 94 588 213 866 561 588 909 807 1028 1178 573V547ZM672 547 301 94 82 213 360 561 82 909 301 1028 672 573V547Z" glyph-name="guillemotright" horiz-adv-x="1260" unicode="&#xbb;"/><glyph d="M794 586H556V1032L559 1144 564 1239Q537 1203 489 1161L411 1100 302 1227 603 1462H794V586ZM1370 1462 559 0H320L1131 1462H1370ZM1682 152H1557V1H1319V152H936V306L1321 883H1557V320H1682V152ZM1319 320V484Q1319 570 1325 668 1316 642 1290 588T1248 511L1121 320H1319Z" glyph-name="onequarter" horiz-adv-x="1804" unicode="&#xbc;"/><glyph d="M794 586H556V1032L559 1144 564 1239Q537 1203 489 1161L411 1100 302 1227 603 1462H794V586ZM1370 1462 559 0H320L1131 1462H1370ZM1716 1H1069V169L1293 388Q1395 488 1423 532T1452 627Q1452 665 1428 685T1364 705Q1283 705 1184 617L1061 769Q1208 898 1397 898 1534 898 1613 832T1692 648Q1692 563 1645 488T1469 296L1364 201H1716V1Z" glyph-name="onehalf" horiz-adv-x="1804" unicode="&#xbd;"/><glyph d="M697 1249Q697 1106 527 1051V1038Q621 1018 673 963T725 829Q725 708 637 639T363 569Q220 569 90 639V829Q238 739 361 739 504 739 504 846 504 899 460 925T338 952H226V1112H318Q401 1112 441 1138T482 1221Q482 1259 457 1284T381 1309Q334 1309 292 1290T193 1231L92 1372Q154 1419 229 1450T408 1481Q535 1481 616 1417T697 1249ZM1441 1462 630 0H391L1202 1462H1441ZM1712 152H1587V1H1349V152H966V306L1351 883H1587V320H1712V152ZM1349 320V484Q1349 570 1355 668 1346 642 1320 588T1278 511L1151 320H1349Z" glyph-name="threequarters" horiz-adv-x="1804" unicode="&#xbe;"/><glyph d="M713 606V532Q713 434 669 363T516 215Q407 137 379 93T350-14Q350-71 393-108T526-145Q605-145 695-116T881-45L983-266Q885-322 762-356T532-391Q312-391 187-295T61-29Q61 79 109 158T301 342Q396 412 422 449T449 547V606H713ZM745 948Q745 864 700 821T569 778Q486 778 441 822T395 948Q395 1029 441 1073T569 1118Q653 1118 699 1074T745 948Z" glyph-name="questiondown" horiz-adv-x="977" unicode="&#xbf;"/><glyph d="M1079 0 973 348H440L334 0H0L516 1468H895L1413 0H1079ZM899 608Q752 1081 734 1143T707 1241Q674 1113 518 608H899ZM713 1579Q650 1623 528 1721T338 1886V1907H680Q743 1806 915 1606V1579H713Z" glyph-name="Agrave" horiz-adv-x="1413" unicode="&#xc0;"/><glyph d="M1079 0 973 348H440L334 0H0L516 1468H895L1413 0H1079ZM899 608Q752 1081 734 1143T707 1241Q674 1113 518 608H899ZM541 1579V1606Q713 1806 776 1907H1118V1886Q1066 1834 941 1732T744 1579H541Z" glyph-name="Aacute" horiz-adv-x="1413" unicode="&#xc1;"/><glyph d="M1079 0 973 348H440L334 0H0L516 1468H895L1413 0H1079ZM899 608Q752 1081 734 1143T707 1241Q674 1113 518 608H899ZM938 1579Q781 1672 704 1755 626 1674 475 1579H272V1606Q461 1795 528 1907H885Q916 1855 992 1766T1141 1606V1579H938Z" glyph-name="Acircumflex" horiz-adv-x="1413" unicode="&#xc2;"/><glyph d="M1079 0 973 348H440L334 0H0L516 1468H895L1413 0H1079ZM899 608Q752 1081 734 1143T707 1241Q674 1113 518 608H899ZM543 1684Q512 1684 484 1658T442 1577H293Q304 1722 375 1804T565 1886Q606 1886 645 1870T723 1834 799 1798 872 1782Q903 1782 931 1808T973 1888H1122Q1111 1743 1039 1661T850 1579Q809 1579 770 1595T692 1631 616 1667 543 1684Z" glyph-name="Atilde" horiz-adv-x="1413" unicode="&#xc3;"/><glyph d="M1079 0 973 348H440L334 0H0L516 1468H895L1413 0H1079ZM899 608Q752 1081 734 1143T707 1241Q674 1113 518 608H899ZM365 1743Q365 1808 402 1843T504 1878Q570 1878 607 1841T645 1743Q645 1683 607 1647T504 1610Q440 1610 403 1645T365 1743ZM768 1743Q768 1813 808 1845T909 1878Q974 1878 1012 1842T1051 1743Q1051 1682 1012 1646T909 1610Q849 1610 809 1642T768 1743Z" glyph-name="Adieresis" horiz-adv-x="1413" unicode="&#xc4;"/><glyph d="M1079 0 973 348H440L334 0H0L516 1468H895L1413 0H1079ZM899 608Q752 1081 734 1143T707 1241Q674 1113 518 608H899ZM959 1567Q959 1459 888 1393T705 1327Q593 1327 525 1391T457 1565Q457 1673 524 1737T705 1802Q815 1802 887 1736T959 1567ZM801 1565Q801 1610 774 1635T705 1661Q663 1661 636 1636T609 1565Q609 1520 633 1494T705 1468Q747 1468 774 1494T801 1565Z" glyph-name="Aring" horiz-adv-x="1413" unicode="&#xc5;"/><glyph d="M1829 0H956V348H465L315 0H0L655 1462H1829V1208H1266V887H1792V633H1266V256H1829V0ZM578 608H956V1198H829L578 608Z" glyph-name="AE" horiz-adv-x="1950" unicode="&#xc6;"/><glyph d="M805 1225Q630 1225 534 1094T438 727Q438 238 805 238 959 238 1178 315V55Q998-20 776-20 457-20 288 173T119 729Q119 957 202 1128T440 1391 805 1483Q1018 1483 1233 1380L1133 1128Q1051 1167 968 1196T805 1225ZM959-250Q959-378 884-435T650-492Q572-492 504-471V-303Q531-310 576-317T647-324Q719-324 719-262 719-179 553-154L631 0H824L797-61Q871-85 915-135T959-250Z" glyph-name="Ccedilla" horiz-adv-x="1305" unicode="&#xc7;"/><glyph d="M1026 0H184V1462H1026V1208H494V887H989V633H494V256H1026V0ZM634 1579Q571 1623 449 1721T259 1886V1907H601Q664 1806 836 1606V1579H634Z" glyph-name="Egrave" horiz-adv-x="1147" unicode="&#xc8;"/><glyph d="M1026 0H184V1462H1026V1208H494V887H989V633H494V256H1026V0ZM424 1579V1606Q596 1806 659 1907H1001V1886Q949 1834 824 1732T627 1579H424Z" glyph-name="Eacute" horiz-adv-x="1147" unicode="&#xc9;"/><glyph d="M1026 0H184V1462H1026V1208H494V887H989V633H494V256H1026V0ZM841 1579Q684 1672 607 1755 529 1674 378 1579H175V1606Q364 1795 431 1907H788Q819 1855 895 1766T1044 1606V1579H841Z" glyph-name="Ecircumflex" horiz-adv-x="1147" unicode="&#xca;"/><glyph d="M1026 0H184V1462H1026V1208H494V887H989V633H494V256H1026V0ZM272 1743Q272 1808 309 1843T411 1878Q477 1878 514 1841T552 1743Q552 1683 514 1647T411 1610Q347 1610 310 1645T272 1743ZM675 1743Q675 1813 715 1845T816 1878Q881 1878 919 1842T958 1743Q958 1682 919 1646T816 1610Q756 1610 716 1642T675 1743Z" glyph-name="Edieresis" horiz-adv-x="1147" unicode="&#xcb;"/><glyph d="M184 0V1462H494V0H184ZM317 1579Q254 1623 132 1721T-58 1886V1907H284Q347 1806 519 1606V1579H317Z" glyph-name="Igrave" horiz-adv-x="678" unicode="&#xcc;"/><glyph d="M184 0V1462H494V0H184ZM167 1579V1606Q339 1806 402 1907H744V1886Q692 1834 567 1732T370 1579H167Z" glyph-name="Iacute" horiz-adv-x="678" unicode="&#xcd;"/><glyph d="M184 0V1462H494V0H184ZM570 1579Q413 1672 336 1755 258 1674 107 1579H-96V1606Q93 1795 160 1907H517Q548 1855 624 1766T773 1606V1579H570Z" glyph-name="Icircumflex" horiz-adv-x="678" unicode="&#xce;"/><glyph d="M184 0V1462H494V0H184ZM-3 1743Q-3 1808 34 1843T136 1878Q202 1878 239 1841T277 1743Q277 1683 239 1647T136 1610Q72 1610 35 1645T-3 1743ZM400 1743Q400 1813 440 1845T541 1878Q606 1878 644 1842T683 1743Q683 1682 644 1646T541 1610Q481 1610 441 1642T400 1743Z" glyph-name="Idieresis" horiz-adv-x="678" unicode="&#xcf;"/><glyph d="M47 850H184V1462H643Q1001 1462 1199 1273T1397 745Q1397 384 1192 192T598 0H184V596H47V850ZM1075 737Q1075 969 971 1088T657 1208H494V850H731V596H494V256H625Q1075 256 1075 737Z" glyph-name="Eth" horiz-adv-x="1516" unicode="&#xd0;"/><glyph d="M1481 0H1087L451 1106H442Q461 813 461 688V0H184V1462H575L1210 367H1217Q1202 652 1202 770V1462H1481V0ZM668 1684Q637 1684 609 1658T567 1577H418Q429 1722 500 1804T690 1886Q731 1886 770 1870T848 1834 924 1798 997 1782Q1028 1782 1056 1808T1098 1888H1247Q1236 1743 1164 1661T975 1579Q934 1579 895 1595T817 1631 741 1667 668 1684Z" glyph-name="Ntilde" horiz-adv-x="1665" unicode="&#xd1;"/><glyph d="M1511 733Q1511 370 1331 175T815-20Q479-20 299 175T119 735Q119 1100 299 1292T817 1485Q1154 1485 1332 1291T1511 733ZM444 733Q444 488 537 364T815 240Q1186 240 1186 733 1186 1227 817 1227 632 1227 538 1103T444 733ZM824 1579Q761 1623 639 1721T449 1886V1907H791Q854 1806 1026 1606V1579H824Z" glyph-name="Ograve" horiz-adv-x="1630" unicode="&#xd2;"/><glyph d="M1511 733Q1511 370 1331 175T815-20Q479-20 299 175T119 735Q119 1100 299 1292T817 1485Q1154 1485 1332 1291T1511 733ZM444 733Q444 488 537 364T815 240Q1186 240 1186 733 1186 1227 817 1227 632 1227 538 1103T444 733ZM658 1579V1606Q830 1806 893 1907H1235V1886Q1183 1834 1058 1732T861 1579H658Z" glyph-name="Oacute" horiz-adv-x="1630" unicode="&#xd3;"/><glyph d="M1511 733Q1511 370 1331 175T815-20Q479-20 299 175T119 735Q119 1100 299 1292T817 1485Q1154 1485 1332 1291T1511 733ZM444 733Q444 488 537 364T815 240Q1186 240 1186 733 1186 1227 817 1227 632 1227 538 1103T444 733ZM1047 1579Q890 1672 813 1755 735 1674 584 1579H381V1606Q570 1795 637 1907H994Q1025 1855 1101 1766T1250 1606V1579H1047Z" glyph-name="Ocircumflex" horiz-adv-x="1630" unicode="&#xd4;"/><glyph d="M1511 733Q1511 370 1331 175T815-20Q479-20 299 175T119 735Q119 1100 299 1292T817 1485Q1154 1485 1332 1291T1511 733ZM444 733Q444 488 537 364T815 240Q1186 240 1186 733 1186 1227 817 1227 632 1227 538 1103T444 733ZM652 1684Q621 1684 593 1658T551 1577H402Q413 1722 484 1804T674 1886Q715 1886 754 1870T832 1834 908 1798 981 1782Q1012 1782 1040 1808T1082 1888H1231Q1220 1743 1148 1661T959 1579Q918 1579 879 1595T801 1631 725 1667 652 1684Z" glyph-name="Otilde" horiz-adv-x="1630" unicode="&#xd5;"/><glyph d="M1511 733Q1511 370 1331 175T815-20Q479-20 299 175T119 735Q119 1100 299 1292T817 1485Q1154 1485 1332 1291T1511 733ZM444 733Q444 488 537 364T815 240Q1186 240 1186 733 1186 1227 817 1227 632 1227 538 1103T444 733ZM474 1743Q474 1808 511 1843T613 1878Q679 1878 716 1841T754 1743Q754 1683 716 1647T613 1610Q549 1610 512 1645T474 1743ZM877 1743Q877 1813 917 1845T1018 1878Q1083 1878 1121 1842T1160 1743Q1160 1682 1121 1646T1018 1610Q958 1610 918 1642T877 1743Z" glyph-name="Odieresis" horiz-adv-x="1630" unicode="&#xd6;"/><glyph d="M428 723 129 1024 281 1178 582 879 887 1178 1040 1028 735 723 1036 420 887 268 582 569 281 270 131 422 428 723Z" glyph-name="multiply" horiz-adv-x="1169" unicode="&#xd7;"/><glyph d="M1511 733Q1511 370 1331 175T815-20Q618-20 479 45L389-90 227 18 317 154Q119 348 119 735 119 1100 299 1292T817 1485Q1015 1485 1161 1415L1245 1540 1405 1436 1317 1305Q1511 1111 1511 733ZM444 733Q444 542 500 426L1006 1182Q922 1227 817 1227 632 1227 538 1103T444 733ZM1186 733Q1186 913 1135 1030L635 279Q711 240 815 240 1186 240 1186 733Z" glyph-name="Oslash" horiz-adv-x="1630" unicode="&#xd8;"/><glyph d="M1374 1462V516Q1374 354 1302 232T1092 45 768-20Q486-20 330 124T174 520V1462H483V567Q483 398 551 319T776 240Q928 240 996 319T1065 569V1462H1374ZM750 1579Q687 1623 565 1721T375 1886V1907H717Q780 1806 952 1606V1579H750Z" glyph-name="Ugrave" horiz-adv-x="1548" unicode="&#xd9;"/><glyph d="M1374 1462V516Q1374 354 1302 232T1092 45 768-20Q486-20 330 124T174 520V1462H483V567Q483 398 551 319T776 240Q928 240 996 319T1065 569V1462H1374ZM602 1579V1606Q774 1806 837 1907H1179V1886Q1127 1834 1002 1732T805 1579H602Z" glyph-name="Uacute" horiz-adv-x="1548" unicode="&#xda;"/><glyph d="M1374 1462V516Q1374 354 1302 232T1092 45 768-20Q486-20 330 124T174 520V1462H483V567Q483 398 551 319T776 240Q928 240 996 319T1065 569V1462H1374ZM1006 1579Q849 1672 772 1755 694 1674 543 1579H340V1606Q529 1795 596 1907H953Q984 1855 1060 1766T1209 1606V1579H1006Z" glyph-name="Ucircumflex" horiz-adv-x="1548" unicode="&#xdb;"/><glyph d="M1374 1462V516Q1374 354 1302 232T1092 45 768-20Q486-20 330 124T174 520V1462H483V567Q483 398 551 319T776 240Q928 240 996 319T1065 569V1462H1374ZM433 1743Q433 1808 470 1843T572 1878Q638 1878 675 1841T713 1743Q713 1683 675 1647T572 1610Q508 1610 471 1645T433 1743ZM836 1743Q836 1813 876 1845T977 1878Q1042 1878 1080 1842T1119 1743Q1119 1682 1080 1646T977 1610Q917 1610 877 1642T836 1743Z" glyph-name="Udieresis" horiz-adv-x="1548" unicode="&#xdc;"/><glyph d="M639 860 944 1462H1278L793 569V0H485V559L0 1462H336L639 860ZM461 1579V1606Q633 1806 696 1907H1038V1886Q986 1834 861 1732T664 1579H461Z" glyph-name="Yacute" horiz-adv-x="1278" unicode="&#xdd;"/><glyph d="M1194 770Q1194 541 1052 417T647 293H494V0H184V1462H494V1233H672Q926 1233 1060 1114T1194 770ZM494 543H594Q739 543 810 595T881 770Q881 877 818 929T618 981H494V543Z" glyph-name="Thorn" horiz-adv-x="1286" unicode="&#xde;"/><glyph d="M1249 1241Q1249 1177 1228 1129T1175 1042 1106 975 1037 922 984 877 963 834Q963 807 989 781T1082 715Q1228 624 1280 575T1358 465 1384 326Q1384 154 1268 67T924-20Q825-20 753-6T621 43V285Q674 249 756 224T903 199Q1071 199 1071 322 1071 363 1055 388T998 444 883 516Q757 588 708 647T659 788Q659 852 694 905T799 1007Q876 1062 907 1102T938 1188Q938 1248 875 1288T711 1329Q595 1329 530 1277T465 1128V0H160V1139Q160 1340 306 1453T711 1567Q955 1567 1102 1479T1249 1241Z" glyph-name="germandbls" horiz-adv-x="1456" unicode="&#xdf;"/><glyph d="M870 0 811 152H803Q726 55 645 18T432-20Q271-20 179 72T86 334Q86 512 210 596T586 690L780 696V745Q780 915 606 915 472 915 291 834L190 1040Q383 1141 618 1141 843 1141 963 1043T1083 745V0H870ZM780 518 662 514Q529 510 464 466T399 332Q399 203 547 203 653 203 716 264T780 426V518ZM870 1241Q807 1285 685 1383T495 1548V1569H837Q900 1468 1072 1268V1241H870Z" glyph-name="agrave" horiz-adv-x="1237" unicode="&#xe0;"/><glyph d="M870 0 811 152H803Q726 55 645 18T432-20Q271-20 179 72T86 334Q86 512 210 596T586 690L780 696V745Q780 915 606 915 472 915 291 834L190 1040Q383 1141 618 1141 843 1141 963 1043T1083 745V0H870ZM780 518 662 514Q529 510 464 466T399 332Q399 203 547 203 653 203 716 264T780 426V518ZM441 1241V1268Q613 1468 676 1569H1018V1548Q966 1496 841 1394T644 1241H441Z" glyph-name="aacute" horiz-adv-x="1237" unicode="&#xe1;"/><glyph d="M870 0 811 152H803Q726 55 645 18T432-20Q271-20 179 72T86 334Q86 512 210 596T586 690L780 696V745Q780 915 606 915 472 915 291 834L190 1040Q383 1141 618 1141 843 1141 963 1043T1083 745V0H870ZM780 518 662 514Q529 510 464 466T399 332Q399 203 547 203 653 203 716 264T780 426V518ZM1099 1496Q942 1589 865 1672 787 1591 636 1496H433V1523Q622 1712 689 1824H1046Q1077 1772 1153 1683T1302 1523V1496H1099Z" glyph-name="acircumflex" horiz-adv-x="1237" unicode="&#xe2;"/><glyph d="M870 0 811 152H803Q726 55 645 18T432-20Q271-20 179 72T86 334Q86 512 210 596T586 690L780 696V745Q780 915 606 915 472 915 291 834L190 1040Q383 1141 618 1141 843 1141 963 1043T1083 745V0H870ZM780 518 662 514Q529 510 464 466T399 332Q399 203 547 203 653 203 716 264T780 426V518ZM467 1346Q436 1346 408 1320T366 1239H217Q228 1384 299 1466T489 1548Q530 1548 569 1532T647 1496 723 1460 796 1444Q827 1444 855 1470T897 1550H1046Q1035 1405 963 1323T774 1241Q733 1241 694 1257T616 1293 540 1329 467 1346Z" glyph-name="atilde" horiz-adv-x="1237" unicode="&#xe3;"/><glyph d="M870 0 811 152H803Q726 55 645 18T432-20Q271-20 179 72T86 334Q86 512 210 596T586 690L780 696V745Q780 915 606 915 472 915 291 834L190 1040Q383 1141 618 1141 843 1141 963 1043T1083 745V0H870ZM780 518 662 514Q529 510 464 466T399 332Q399 203 547 203 653 203 716 264T780 426V518ZM285 1405Q285 1470 322 1505T424 1540Q490 1540 527 1503T565 1405Q565 1345 527 1309T424 1272Q360 1272 323 1307T285 1405ZM688 1405Q688 1475 728 1507T829 1540Q894 1540 932 1504T971 1405Q971 1344 932 1308T829 1272Q769 1272 729 1304T688 1405Z" glyph-name="adieresis" horiz-adv-x="1237" unicode="&#xe4;"/><glyph d="M870 0 811 152H803Q726 55 645 18T432-20Q271-20 179 72T86 334Q86 512 210 596T586 690L780 696V745Q780 915 606 915 472 915 291 834L190 1040Q383 1141 618 1141 843 1141 963 1043T1083 745V0H870ZM780 518 662 514Q529 510 464 466T399 332Q399 203 547 203 653 203 716 264T780 426V518ZM883 1479Q883 1371 812 1305T629 1239Q517 1239 449 1303T381 1477Q381 1585 448 1649T629 1714Q739 1714 811 1648T883 1479ZM725 1477Q725 1522 698 1547T629 1573Q587 1573 560 1548T533 1477Q533 1432 557 1406T629 1380Q671 1380 698 1406T725 1477Z" glyph-name="aring" horiz-adv-x="1237" unicode="&#xe5;"/><glyph d="M1329-20Q1192-20 1080 30T895 186Q797 69 699 25T442-20Q281-20 184 74T86 334Q86 512 207 596T569 690L760 696V780Q760 849 716 882T594 915Q454 915 289 838L190 1040Q379 1141 612 1141 839 1141 954 1010 1020 1074 1106 1106T1313 1139Q1534 1139 1662 1002T1790 631V483H1067Q1072 353 1144 280T1346 207Q1542 207 1726 295V59Q1647 20 1555 0T1329-20ZM760 518 647 514Q523 510 461 467T399 332Q399 203 539 203 640 203 700 264T760 426V518ZM1307 922Q1090 922 1073 686H1503Q1501 798 1448 860T1307 922Z" glyph-name="ae" horiz-adv-x="1878" unicode="&#xe6;"/><glyph d="M614-20Q92-20 92 553 92 838 234 988T641 1139Q835 1139 989 1063L899 827Q827 856 765 874T641 893Q403 893 403 555 403 227 641 227 729 227 804 250T954 324V63Q880 16 805-2T614-20ZM805-250Q805-378 730-435T496-492Q418-492 350-471V-303Q377-310 422-317T493-324Q565-324 565-262 565-179 399-154L477 0H670L643-61Q717-85 761-135T805-250Z" glyph-name="ccedilla" horiz-adv-x="1053" unicode="&#xe7;"/><glyph d="M623 922Q526 922 471 861T408 686H836Q834 799 777 860T623 922ZM666-20Q396-20 244 129T92 551Q92 832 232 985T621 1139Q858 1139 990 1004T1122 631V483H401Q406 353 478 280T680 207Q781 207 871 228T1059 295V59Q979 19 888 0T666-20ZM876 1241Q813 1285 691 1383T501 1548V1569H843Q906 1468 1078 1268V1241H876Z" glyph-name="egrave" horiz-adv-x="1210" unicode="&#xe8;"/><glyph d="M623 922Q526 922 471 861T408 686H836Q834 799 777 860T623 922ZM666-20Q396-20 244 129T92 551Q92 832 232 985T621 1139Q858 1139 990 1004T1122 631V483H401Q406 353 478 280T680 207Q781 207 871 228T1059 295V59Q979 19 888 0T666-20ZM447 1241V1268Q619 1468 682 1569H1024V1548Q972 1496 847 1394T650 1241H447Z" glyph-name="eacute" horiz-adv-x="1210" unicode="&#xe9;"/><glyph d="M623 922Q526 922 471 861T408 686H836Q834 799 777 860T623 922ZM666-20Q396-20 244 129T92 551Q92 832 232 985T621 1139Q858 1139 990 1004T1122 631V483H401Q406 353 478 280T680 207Q781 207 871 228T1059 295V59Q979 19 888 0T666-20ZM860 1241Q703 1334 626 1417 548 1336 397 1241H194V1268Q383 1457 450 1569H807Q838 1517 914 1428T1063 1268V1241H860Z" glyph-name="ecircumflex" horiz-adv-x="1210" unicode="&#xea;"/><glyph d="M623 922Q526 922 471 861T408 686H836Q834 799 777 860T623 922ZM666-20Q396-20 244 129T92 551Q92 832 232 985T621 1139Q858 1139 990 1004T1122 631V483H401Q406 353 478 280T680 207Q781 207 871 228T1059 295V59Q979 19 888 0T666-20ZM297 1405Q297 1470 334 1505T436 1540Q502 1540 539 1503T577 1405Q577 1345 539 1309T436 1272Q372 1272 335 1307T297 1405ZM700 1405Q700 1475 740 1507T841 1540Q906 1540 944 1504T983 1405Q983 1344 944 1308T841 1272Q781 1272 741 1304T700 1405Z" glyph-name="edieresis" horiz-adv-x="1210" unicode="&#xeb;"/><glyph d="M465 0H160V1118H465V0ZM274 1241Q211 1285 89 1383T-101 1548V1569H241Q304 1468 476 1268V1241H274Z" glyph-name="igrave" horiz-adv-x="625" unicode="&#xec;"/><glyph d="M465 0H160V1118H465V0ZM145 1241V1268Q317 1468 380 1569H722V1548Q670 1496 545 1394T348 1241H145Z" glyph-name="iacute" horiz-adv-x="625" unicode="&#xed;"/><glyph d="M465 0H160V1118H465V0ZM544 1241Q387 1334 310 1417 232 1336 81 1241H-122V1268Q67 1457 134 1569H491Q522 1517 598 1428T747 1268V1241H544Z" glyph-name="icircumflex" horiz-adv-x="625" unicode="&#xee;"/><glyph d="M465 0H160V1118H465V0ZM-29 1405Q-29 1470 8 1505T110 1540Q176 1540 213 1503T251 1405Q251 1345 213 1309T110 1272Q46 1272 9 1307T-29 1405ZM374 1405Q374 1475 414 1507T515 1540Q580 1540 618 1504T657 1405Q657 1344 618 1308T515 1272Q455 1272 415 1304T374 1405Z" glyph-name="idieresis" horiz-adv-x="625" unicode="&#xef;"/><glyph d="M510 1303Q430 1356 358 1395L459 1571Q603 1506 717 1430L942 1569 1042 1415 872 1311Q1028 1168 1102 987T1176 573Q1176 293 1031 137T631-20Q386-20 239 117T92 489Q92 722 222 858T573 995Q778 995 848 897L856 901Q789 1063 664 1182L434 1040 334 1196 510 1303ZM864 532Q864 640 803 705T635 770Q514 770 459 702T403 487Q403 347 463 276T635 205Q758 205 811 287T864 532Z" glyph-name="eth" horiz-adv-x="1268" unicode="&#xf0;"/><glyph d="M1192 0H887V653Q887 774 844 834T707 895Q579 895 522 810T465 526V0H160V1118H393L434 975H451Q502 1056 591 1097T795 1139Q990 1139 1091 1034T1192 729V0ZM508 1346Q477 1346 449 1320T407 1239H258Q269 1384 340 1466T530 1548Q571 1548 610 1532T688 1496 764 1460 837 1444Q868 1444 896 1470T938 1550H1087Q1076 1405 1004 1323T815 1241Q774 1241 735 1257T657 1293 581 1329 508 1346Z" glyph-name="ntilde" horiz-adv-x="1346" unicode="&#xf1;"/><glyph d="M403 561Q403 395 457 310T635 225Q757 225 810 309T864 561Q864 727 810 810T633 893Q511 893 457 811T403 561ZM1176 561Q1176 288 1032 134T631-20Q470-20 347 50T158 253 92 561Q92 835 235 987T637 1139Q798 1139 921 1069T1110 868 1176 561ZM868 1241Q805 1285 683 1383T493 1548V1569H835Q898 1468 1070 1268V1241H868Z" glyph-name="ograve" horiz-adv-x="1268" unicode="&#xf2;"/><glyph d="M403 561Q403 395 457 310T635 225Q757 225 810 309T864 561Q864 727 810 810T633 893Q511 893 457 811T403 561ZM1176 561Q1176 288 1032 134T631-20Q470-20 347 50T158 253 92 561Q92 835 235 987T637 1139Q798 1139 921 1069T1110 868 1176 561ZM467 1241V1268Q639 1468 702 1569H1044V1548Q992 1496 867 1394T670 1241H467Z" glyph-name="oacute" horiz-adv-x="1268" unicode="&#xf3;"/><glyph d="M403 561Q403 395 457 310T635 225Q757 225 810 309T864 561Q864 727 810 810T633 893Q511 893 457 811T403 561ZM1176 561Q1176 288 1032 134T631-20Q470-20 347 50T158 253 92 561Q92 835 235 987T637 1139Q798 1139 921 1069T1110 868 1176 561ZM864 1241Q707 1334 630 1417 552 1336 401 1241H198V1268Q387 1457 454 1569H811Q842 1517 918 1428T1067 1268V1241H864Z" glyph-name="ocircumflex" horiz-adv-x="1268" unicode="&#xf4;"/><glyph d="M403 561Q403 395 457 310T635 225Q757 225 810 309T864 561Q864 727 810 810T633 893Q511 893 457 811T403 561ZM1176 561Q1176 288 1032 134T631-20Q470-20 347 50T158 253 92 561Q92 835 235 987T637 1139Q798 1139 921 1069T1110 868 1176 561ZM469 1346Q438 1346 410 1320T368 1239H219Q230 1384 301 1466T491 1548Q532 1548 571 1532T649 1496 725 1460 798 1444Q829 1444 857 1470T899 1550H1048Q1037 1405 965 1323T776 1241Q735 1241 696 1257T618 1293 542 1329 469 1346Z" glyph-name="otilde" horiz-adv-x="1268" unicode="&#xf5;"/><glyph d="M403 561Q403 395 457 310T635 225Q757 225 810 309T864 561Q864 727 810 810T633 893Q511 893 457 811T403 561ZM1176 561Q1176 288 1032 134T631-20Q470-20 347 50T158 253 92 561Q92 835 235 987T637 1139Q798 1139 921 1069T1110 868 1176 561ZM291 1405Q291 1470 328 1505T430 1540Q496 1540 533 1503T571 1405Q571 1345 533 1309T430 1272Q366 1272 329 1307T291 1405ZM694 1405Q694 1475 734 1507T835 1540Q900 1540 938 1504T977 1405Q977 1344 938 1308T835 1272Q775 1272 735 1304T694 1405Z" glyph-name="odieresis" horiz-adv-x="1268" unicode="&#xf6;"/><glyph d="M88 612V831H1081V612H88ZM444 373Q444 449 481 486T584 524Q650 524 686 485T723 373Q723 303 686 262T584 221Q519 221 482 260T444 373ZM444 1071Q444 1146 481 1184T584 1223Q651 1223 687 1183T723 1071Q723 1001 686 961T584 920Q519 920 482 959T444 1071Z" glyph-name="divide" horiz-adv-x="1169" unicode="&#xf7;"/><glyph d="M1176 561Q1176 288 1032 134T631-20Q505-20 397 25L330-76 176 29 244 129Q92 285 92 561 92 835 235 987T637 1139Q769 1139 885 1087L940 1169 1092 1061 1034 977Q1176 822 1176 561ZM403 561Q403 467 422 395L739 870Q696 893 633 893 511 893 457 811T403 561ZM864 561Q864 642 852 702L543 240Q581 225 635 225 757 225 810 309T864 561Z" glyph-name="oslash" horiz-adv-x="1268" unicode="&#xf8;"/><glyph d="M952 0 911 143H895Q846 65 756 23T551-20Q354-20 254 85T154 389V1118H459V465Q459 344 502 284T639 223Q767 223 824 308T881 592V1118H1186V0H952ZM876 1241Q813 1285 691 1383T501 1548V1569H843Q906 1468 1078 1268V1241H876Z" glyph-name="ugrave" horiz-adv-x="1346" unicode="&#xf9;"/><glyph d="M952 0 911 143H895Q846 65 756 23T551-20Q354-20 254 85T154 389V1118H459V465Q459 344 502 284T639 223Q767 223 824 308T881 592V1118H1186V0H952ZM498 1241V1268Q670 1468 733 1569H1075V1548Q1023 1496 898 1394T701 1241H498Z" glyph-name="uacute" horiz-adv-x="1346" unicode="&#xfa;"/><glyph d="M952 0 911 143H895Q846 65 756 23T551-20Q354-20 254 85T154 389V1118H459V465Q459 344 502 284T639 223Q767 223 824 308T881 592V1118H1186V0H952ZM901 1241Q744 1334 667 1417 589 1336 438 1241H235V1268Q424 1457 491 1569H848Q879 1517 955 1428T1104 1268V1241H901Z" glyph-name="ucircumflex" horiz-adv-x="1346" unicode="&#xfb;"/><glyph d="M952 0 911 143H895Q846 65 756 23T551-20Q354-20 254 85T154 389V1118H459V465Q459 344 502 284T639 223Q767 223 824 308T881 592V1118H1186V0H952ZM326 1405Q326 1470 363 1505T465 1540Q531 1540 568 1503T606 1405Q606 1345 568 1309T465 1272Q401 1272 364 1307T326 1405ZM729 1405Q729 1475 769 1507T870 1540Q935 1540 973 1504T1012 1405Q1012 1344 973 1308T870 1272Q810 1272 770 1304T729 1405Z" glyph-name="udieresis" horiz-adv-x="1346" unicode="&#xfc;"/><glyph d="M0 1118H334L545 489Q572 407 582 295H588Q599 398 631 489L838 1118H1165L692-143Q627-318 507-405T225-492Q146-492 70-475V-233Q125-246 190-246 271-246 331-197T426-47L444 8 0 1118ZM393 1241V1268Q565 1468 628 1569H970V1548Q918 1496 793 1394T596 1241H393Z" glyph-name="yacute" horiz-adv-x="1165" unicode="&#xfd;"/><glyph d="M465 973Q515 1054 596 1096T782 1139Q980 1139 1092 985T1204 561Q1204 288 1093 134T782-20Q569-20 465 117H451L458 55 465-39V-492H160V1556H465V1165L458 1045 451 973H465ZM684 895Q571 895 519 826T465 596V563Q465 383 518 305T688 227Q893 227 893 565 893 730 843 812T684 895Z" glyph-name="thorn" horiz-adv-x="1296" unicode="&#xfe;"/><glyph d="M0 1118H334L545 489Q572 407 582 295H588Q599 398 631 489L838 1118H1165L692-143Q627-318 507-405T225-492Q146-492 70-475V-233Q125-246 190-246 271-246 331-197T426-47L444 8 0 1118ZM499 1405Q499 1470 536 1505T638 1540Q704 1540 741 1503T779 1405Q779 1345 741 1309T638 1272Q574 1272 537 1307T499 1405ZM902 1405Q902 1475 942 1507T1043 1540Q1108 1540 1146 1504T1185 1405Q1185 1344 1146 1308T1043 1272Q983 1272 943 1304T902 1405Z" glyph-name="ydieresis" horiz-adv-x="1165" unicode="&#xff;"/><glyph d="M82 436V666H942V436H82Z" glyph-name="endash" horiz-adv-x="1024" unicode="&#x2013;"/><glyph d="M82 436V666H1966V436H82Z" glyph-name="emdash" horiz-adv-x="2048" unicode="&#x2014;"/><glyph d="M39 961 25 983Q47 1074 97 1211T201 1462H420Q354 1195 319 961H39Z" glyph-name="quoteleft" horiz-adv-x="444" unicode="&#x2018;"/><glyph d="M406 1462 420 1440Q370 1243 244 961H25Q94 1257 125 1462H406Z" glyph-name="quoteright" horiz-adv-x="444" unicode="&#x2019;"/><glyph d="M459 215Q407 13 283-264H63Q128 2 164 238H444L459 215Z" glyph-name="quotesinglbase" horiz-adv-x="596" unicode="&#x201a;"/><glyph d="M492 983Q514 1074 564 1211T668 1462H887Q821 1195 786 961H506L492 983ZM25 983Q47 1074 97 1211T201 1462H420Q354 1195 319 961H39L25 983Z" glyph-name="quotedblleft" horiz-adv-x="911" unicode="&#x201c;"/><glyph d="M420 1440Q370 1243 244 961H25Q94 1257 125 1462H406L420 1440ZM887 1440Q837 1243 711 961H492Q561 1257 592 1462H872L887 1440Z" glyph-name="quotedblright" horiz-adv-x="911" unicode="&#x201d;"/><glyph d="M459 215Q407 13 283-264H63Q128 2 164 238H444L459 215ZM926 215Q874 13 750-264H530Q595 2 631 238H911L926 215Z" glyph-name="quotedblbase" horiz-adv-x="1061" unicode="&#x201e;"/><glyph d="M98 748Q98 902 172 983T385 1065Q522 1065 597 983T672 748Q672 596 597 513T385 430Q247 430 173 513T98 748Z" glyph-name="bullet" horiz-adv-x="770" unicode="&#x2022;"/><glyph d="M82 573 453 1028 672 909 393 561 672 213 453 94 82 547V573Z" glyph-name="guilsinglleft" horiz-adv-x="754" unicode="&#x2039;"/><glyph d="M672 547 301 94 82 213 360 561 82 909 301 1028 672 573V547Z" glyph-name="guilsinglright" horiz-adv-x="754" unicode="&#x203a;"/></font>
</defs>
</svg>
